Batman v Superman-Dawn of Justice 2016 1080p TC X264 Masteredition Hive-CM8

seeders: 8
leechers: 9
updated:
Added by FireofSword93.82K in Movies
Torrent verified. Downloaded 3,316 times.

DownloadFast Safe Anonymous
movies, software, shows...
Summary:

Fearing the actions of Superman are left unchecked, Batman takes on the man of steel, while the world wrestles with what kind of a hero it really needs. With Batman and Superman fighting each other, a new threat, Doomsday, is created by Lex Luthor. It's up to Superman and Batman to set aside their differences along with Wonder Woman to stop Lex Luthor and Doomsday from destroying Metropolis.

Written by .XORN.90.68K Last edited by Hand_of_Doom, 4 months ago
Batman v Superman-Dawn of Justice 2016 1080p TC X264 Masteredition Hive-CM8 (Size: 5.65 GB)
  3min_sample.mkv 112.89 MB
  Batman.v.Superman-Dawn of Justice.2016.1080p.TC.X264.Masteredition.Hive-CM8.mkv 5.54 GB
  Batman.v.Superman-Dawn of Justice.2016.1080p.TC.X264.Masteredition.Hive-CM8.nfo 5.2 KB

Description

Batman v Superman-Dawn of Justice 2016 1080p TC X264 Masteredition Hive-CM8

image

Thx Hive

CM8 Doing It Right The First Time

Sources:

Video: 1080p Chinese Telecine
Audio: Direct Line (CPG/Exclusive)
thx

Notes:
This is a special Encode which took me a whole week of work, but the result is excellent, its a masterpiece from this source
I have encoded it in 1080p only cause this movie needs quality. daylight scenes are perfect and night scenes are now too
Quality is tested and optimized to look perfect even on a 75" 4K TV

Encode:
The Chinese telecine needed a lot of work, brightness,constrast,colours,saturation,black base,white base
and that all changed from scene to scene differently, so i had no other choice than to split the movie in scenes, and do each one as needed
ended up with 120 files and 1tb of data, and manually corrected them each
it was a pita, but totally worth it. nothing is cut from the movie btw

Line Audio was great, lipsynced to my video

got very nice and will do me till retail
enjoy

PS: more Masteredition are coming!
Video: 1920x820 @bitrate 5000-8000
Audio: Line AC3 2.0 Stereo
Sample: yes included
http://www.imdb.com/title/tt2975590/

General
Complete name: Batman.v.Superman-Dawn of Justice.2016.1080p.TC.X264.Masteredition.Hive-CM8.mkv
Format: Matroska
Format version: Version 2
File size: 5.54 GiB
Duration: 2h 31mn
Overall bit rate mode: Variable
Overall bit rate: 5 241 Kbps
Encoded date: UTC 2016-05-06 19:35:14
Writing application: mkvmerge v5.6.0 ('Kenya Kane') built on May 27 2012 16:44:04
Writing library: libebml v1.2.3 + libmatroska v1.3.0

Video
ID: 1
Format: AVC
Format/Info: Advanced Video Codec
Format profile: [email protected]
Format settings, CABAC: Yes
Format settings, ReFrames: 4 frames
Format settings, GOP: M=4, N=33
Muxing mode: Header stripping
Codec ID: V_MPEG4/ISO/AVC
Duration: 2h 31mn
Bit rate mode: Variable
Bit rate: 4 880 Kbps
Maximum bit rate: 8 000 Kbps
Width: 1 920 pixels
Height: 820 pixels
Display aspect ratio: 2.35:1
Frame rate mode: Constant
Frame rate: 29.970 fps
Standard: NTSC
Color space: YUV
Chroma subsampling: 4:2:0
Bit depth: 8 bits
Scan type: Progressive
Bits/(Pixel*Frame): 0.103
Stream size: 5.16 GiB (93%)
Language: English
Default: Yes
Forced: No
Color primaries: BT.709
Transfer characteristics: BT.709
Matrix coefficients: BT.709
Color range: Limited

Audio
ID: 2
Format: AC-3
Format/Info: Audio Coding 3
Mode extension: CM (complete main)
Format settings, Endianness: Big
Muxing mode: Header stripping
Codec ID: A_AC3
Duration: 2h 31mn
Bit rate mode: Constant
Bit rate: 256 Kbps
Channel(s): 2 channels
Channel positions: Front: L R
Sampling rate: 48.0 KHz
Bit depth: 16 bits
Compression mode: Lossy
Stream size: 277 MiB (5%)
Language: English
Default: Yes
Forced: No

::::

Plot

Fearing that the actions of Superman are left unchecked, Batman takes on the Man of Steel, while the world wrestles with what kind of a hero it really needs

Cast overview, first billed only:

Ben Affleck ... Bruce Wayne / Batman
Henry Cavill ... Clark Kent / Superman
Amy Adams ... Lois
Jesse Eisenberg... Lex Luthor
Diane Lane ... Martha Kent
Laurence Fishburne... Perry White
Jeremy Irons ... Alfred
Holly Hunter ... Senator Finch
Gal Gadot ... Diana Prince / Wonder Woman
Scoot McNairy ... Wallace Keefe
Callan Mulvey ... Anatoli Knyazev
Tao Okamoto ... Mercy Graves
Brandon Spink ... Young Bruce Wayne
Lauren Cohan ... Martha Wayne
Alan D. Purwin ... Wayne Industries Pilot #1

LOOKING FOR ANYTHING YOU WANT TO LOOK AND SOUND BETTER

COME FIND US WE DONT BITE


Screens

image image image image image image

Source:

image

Related Torrents

torrent name size files age seed leech

Sharing Widget


Download torrent
5.65 GB
seeders:9
leechers:8
Batman v Superman-Dawn of Justice 2016 1080p TC X264 Masteredition Hive-CM8



To share this torrent use the code below and insert it into comments, status messages, forum posts or your signature.

Torrent: Batman v Superman-Dawn of Ju... X264 Masteredition Hive-CM8

Trackers

tracker name
udp://tracker.openbittorrent.com:80/announce
udp://tracker.coppersurfer.tk:6969/announce
udp://glotorrents.pw:6969/announce
http://tracker.mg64.net:6881/announce
http://explodie.org:6969/announce
udp://tracker.opentrackr.org:1337/announce
udp://zer0day.ch:1337/announce
ĀµTorrent compatible trackers list

Locations

name
KickassTorrents
ExtraTorrent
Torrent hash: 6244B57896CC68917340AA23716F7D7A6AEBECD5

All Comments

audio
7/10
video
7/10
please, leave only comments related to that torrent
Sign In

plz dual audio hindi 1080p print uplod
audio: 7video: 7
Not a bad cam copy. Watchable.

Thanks for the share!
audio: 7video: 7
This is the best version out of the 4 that i've downloaded. Definitely watchable
112MB sample looks much better than any other "fixed up" versions i've tried.
so far; v:6/a:8, where the others were more like v:4/a:8.

User Opinions

PacificaSFX5701, chickolilla1937, Saiyan.Prince1292, VinylJr1033, Overstayer83945, pirata0651, akhilesh9459, Norman_20326, shasan731131, chimuy1 ... And 5 more
Report a bug Open chat
Sitemap