Batman v Superman-Dawn of Justice 2016 1080p TC X264 Masteredition Hive-CM8

seeders: 579
leechers: 98
updated:
Added by Silmarillion800.63K in Movies
Torrent verified. Downloaded 128,429 times.

DownloadFast Safe Anonymous
movies, software, shows...
Summary:

Fearing the actions of Superman are left unchecked, Batman takes on the man of steel, while the world wrestles with what kind of a hero it really needs. With Batman and Superman fighting each other, a new threat, Doomsday, is created by Lex Luthor. It's up to Superman and Batman to set aside their differences along with Wonder Woman to stop Lex Luthor and Doomsday from destroying Metropolis.

Written by .XORN.90.5K Last edited by Hand_of_Doom, 4 months ago
Batman v Superman-Dawn of Justice 2016 1080p TC X264 Masteredition Hive-CM8 (Size: 5.65 GB)
  3min_sample.mkv 112.89 MB
  Batman.v.Superman-Dawn of Justice.2016.1080p.TC.X264.Masteredition.Hive-CM8.mkv 5.54 GB
  Batman.v.Superman-Dawn of Justice.2016.1080p.TC.X264.Masteredition.Hive-CM8.nfo 5.2 KB
  Torrent Downloaded From ExtraTorrent.cc.txt 338 bytes

Description

image


http://www.imdb.com/title/tt2975590/


Fearing that the actions of Superman are left unchecked, Batman takes on the Man of Steel, while the world wrestles with what kind of a hero it really needs.

Director: Zack Snyder
Writers: Chris Terrio, David S. Goyer
Stars: Ben Affleck, Henry Cavill, Amy Adams
Genres: Action | Adventure | Fantasy | Sci-Fi
Country: USA
Language: English


Batman.v.Superman-Dawn of Justice.2016.1080p.TC.X264.Masteredition.Hive-CM8

Thx Hive

CM8 Doing It Right The First Time

Sources:

Video: 1080p Chinese Telecine
Audio: Direct Line (CPG/Exclusive)
thx


Notes:
This is a special Encode which took me a whole week of work, but the result is excellent, its a masterpiece from this source.
I have encoded it in 1080p only cause this movie needs quality. daylight scenes are perfect and night scenes are now too.
Quality is tested and optimized to look perfect even on a 75" 4K TV.


Encode:
The Chinese telecine needed a lot of work, brightness,constrast,colours,saturation,black base,white base...
and that all changed from scene to scene differently, so i had no other choice than to split the movie in scenes, and do each one as needed,
ended up with 120 files and 1tb of data, and manually corrected them each.
it was a pita, but totally worth it. nothing is cut from the movie btw.

Line Audio was great, lipsynced to my video.

got very nice and will do me till retail
enjoy

PS: more Masteredition are coming!

Video: 1920x820 @bitrate 5000-8000
Audio: Line AC3 2.0 Stereo
Sample: yes included



http://www.imdb.com/title/tt2975590/


General
Complete name : Batman.v.Superman-Dawn of Justice.2016.1080p.TC.X264.Masteredition.Hive-CM8.mkv
Format : Matroska
Format version : Version 2
File size : 5.54 GiB
Duration : 2h 31mn
Overall bit rate mode : Variable
Overall bit rate : 5 241 Kbps
Encoded date : UTC 2016-05-06 19:35:14
Writing application : mkvmerge v5.6.0 ('Kenya Kane') built on May 27 2012 16:44:04
Writing library : libebml v1.2.3 + libmatroska v1.3.0

Video
ID : 1
Format : AVC
Format/Info : Advanced Video Codec
Format profile : [email protected]
Format settings, CABAC : Yes
Format settings, ReFrames : 4 frames
Format settings, GOP : M=4, N=33
Muxing mode : Header stripping
Codec ID : V_MPEG4/ISO/AVC
Duration : 2h 31mn
Bit rate mode : Variable
Bit rate : 4 880 Kbps
Maximum bit rate : 8 000 Kbps
Width : 1 920 pixels
Height : 820 pixels
Display aspect ratio : 2.35:1
Frame rate mode : Constant
Frame rate : 29.970 fps
Standard : NTSC
Color space : YUV
Chroma subsampling : 4:2:0
Bit depth : 8 bits
Scan type : Progressive
Bits/(Pixel*Frame) : 0.103
Stream size : 5.16 GiB (93%)
Language : English
Default : Yes
Forced : No
Color primaries : BT.709
Transfer characteristics : BT.709
Matrix coefficients : BT.709
Color range : Limited

Audio
ID : 2
Format : AC-3
Format/Info : Audio Coding 3
Mode extension : CM (complete main)
Format settings, Endianness : Big
Muxing mode : Header stripping
Codec ID : A_AC3
Duration : 2h 31mn
Bit rate mode : Constant
Bit rate : 256 Kbps
Channel(s) : 2 channels
Channel positions : Front: L R
Sampling rate : 48.0 KHz
Bit depth : 16 bits
Compression mode : Lossy
Stream size : 277 MiB (5%)
Language : English
Default : Yes
Forced : No


image image image image image image

Related Torrents

torrent name size files age seed leech

Sharing Widget


Download torrent
5.65 GB
seeders:430
leechers:85
Batman v Superman-Dawn of Justice 2016 1080p TC X264 Masteredition Hive-CM8



To share this torrent use the code below and insert it into comments, status messages, forum posts or your signature.

Torrent: Batman v Superman-Dawn of Ju... X264 Masteredition Hive-CM8

Trackers

tracker name
udp://tracker.openbittorrent.com:80/announce
udp://tracker.coppersurfer.tk:6969/announce
udp://glotorrents.pw:6969/announce
udp://p4p.arenabg.ch:1337/announce
udp://explodie.org:6969/announce
udp://tracker.aletorrenty.pl:2710/announce
udp://9.rarbg.to:2710/announce
udp://torrent.gresille.org:80/announce
udp://tracker.opentrackr.org:1337/announce
udp://tracker.piratepublic.com:1337/announce
ĀµTorrent compatible trackers list

Locations

name
KickassTorrents
ExtraTorrent
Torrent hash: 038427B954183A36AF71514CE310493B511FC7F3

Top Comments

39
anonymous
audio: 1video: 1
extremely dark, dont waste your time with this 5 gigs..
15
LorraineM1412
cinavia protected.
8
anonymous
It's good, but in the dark scenes, you can't see much :/
4
M3NACE76418
Civil War is already available genius

All Comments

audio
5/10
video
5/10
please, leave only comments related to that torrent
Sign In

audio: 8video: 8
Do u bleed ?
haha
btw it was awesome
its nice somehow really dark
it is in japenese language ....i didnt know :(
Show More All
audio: 1video: 1

User Opinions

praveen591011.72K, sugali1984, trouphygnon354, yasinemir285, atanu.cse239, psicokiller217, norgasta216, Yanou3501109, killuafrk97, doudchy62 ... And 543 more
drok3n1698, Earl_D1405, co2movies774, dwtech372, debow745216, Jer0156, revjimmy125, liujianliang56, blacsky45, uuufffttaa41 ... And 84 more
Report a bug Open chat
Sitemap