Finding Dory 2016 HDTS X264 Dual Audio Hindi English AAC PRiME

seeders: 45
leechers: 28
updated:
Added by Simmoncelli122.78K in Movies > Animation
Torrent verified. Downloaded 1,681 times.

DownloadFast Safe Anonymous
movies, software, shows...
  • add Finding Dory to bookmarks
  • Release date: 17 June 2016
  • Writers: Andrew Stanton (original story by), Andrew Stanton (screenplay), Victoria Strouse (screenplay), Bob Peterson (additional screenplay material by), Angus MacLane (additional story material by)
  • Languages: English , Hindi
Summary:

Taking place a year after Finding Nemo, Dory goes on a journey to reunite with her loved ones, and everyone learns a few things about the true meaning of family along the way.

Written by AgentEncore64.91K Last edited by WyldChyld, 9 months ago
Available in versions: x264x265TeleSyncCam
Finding Dory 2016 HDTS X264 Dual Audio Hindi English AAC PRiME (Size: 704.22 MB)
  Finding.Dory.2016.HDTS.X264.Dual.Audio.Hindi.English.AAC.PRiME.mkv 696.56 MB
  Read More!!!.txt 73 bytes
  sample.mkv 7.66 MB
  Torrent Downloaded From ExtraTorrent.cc.txt 414 bytes

Description


Finding.Dory.2016.HDTS.X264.Dual.Audio.Hindi.English.AAC.PRiME

image

image

Format : Matroska
Format version : Version 4 / Version 2
File size : 697 MiB
Duration : 1h 26mn
Overall bit rate : 1 121 Kbps

Video
ID : 1
Format : AVC
Format/Info : Advanced Video Codec
Format profile : [email protected]
Format settings, CABAC : Yes
Format settings, ReFrames : 5 frames
Codec ID : V_MPEG4/ISO/AVC
Duration : 1h 26mn
Bit rate : 990 Kbps
Width : 720 pixels
Height : 384 pixels
Display aspect ratio : 1.85:1
Frame rate mode : Constant
Frame rate : 29.970 (30000/1001) fps
Color space : YUV
Chroma subsampling : 4:2:0
Bit depth : 8 bits
Scan type : Progressive
Bits/(Pixel*Frame) : 0.119
Stream size : 615 MiB (88%)

Audio #1
ID : 2
Format : AAC
Format/Info : Advanced Audio Codec
Format profile : HE-AAC / LC
Codec ID : A_AAC
Duration : 1h 26mn
Bit rate : 64.0 Kbps
Channel(s) : 2 channels
Channel positions : Front: L R
Sampling rate : 48.0 KHz / 24.0 KHz
Frame rate : 23.438 fps (1024 spf)
Compression mode : Lossy
Delay relative to video : 31ms
Stream size : 39.8 MiB (6%)
Title : Hindi.PRiME

Audio #2
ID : 3
Format : AAC
Format/Info : Advanced Audio Codec
Format profile : HE-AAC / LC
Codec ID : A_AAC
Duration : 1h 26mn
Bit rate : 64.0 Kbps
Channel(s) : 2 channels
Channel positions : Front: L R
Sampling rate : 48.0 KHz / 24.0 KHz
Frame rate : 23.438 fps (1024 spf)
Compression mode : Lossy
Delay relative to video : 31ms
Stream size : 39.8 MiB (6%)
Title : English.PRiME
Source : A Friend (Thanks)


image

Click Image To View Full Size

image image image image image image image image image image image image

Related Torrents

torrent name size files age seed leech

Sharing Widget


Download torrent
704.22 MB
seeders:42
leechers:18
Finding Dory 2016 HDTS X264 Dual Audio Hindi English AAC PRiME



To share this torrent use the code below and insert it into comments, status messages, forum posts or your signature.

Torrent: Finding Dory 2016 HDTS X264 ...udio Hindi English AAC PRiME

Trackers

tracker name
udp://tracker.openbittorrent.com:80/announce
udp://tracker.coppersurfer.tk:6969/announce
udp://9.rarbg.me:2710/announce
udp://tracker.leechers-paradise.org:6969/announce
udp://eddie4.nl:6969/announce
udp://p4p.arenabg.com:1337/announce
udp://torrent.gresille.org:80/announce
udp://tracker.opentrackr.org:1337/announce
udp://tracker.piratepublic.com:1337/announce
udp://tracker.sktorrent.net:6969/announce
ĀµTorrent compatible trackers list

Locations

name
KickassTorrents
Torrent hash: E679EDCE1AB203288A3C1814ED8401892A385EB3

All Comments

audio
7/10
video
6/10
please, leave only comments related to that torrent
Sign In

audio: 8video: 6
Well i give dislike because when I am not 100% satisfied, then It does not mean to me. Well this movie is good one. Video is the area of my discomfort. Audio is awesome. So I wait for better one because in animation there is no place of ok type only excellent is the benchmark. Thnx uploader for your effort but wait for HD.
audio: 7video: 5
good cam thank you
audio: 8video: 7
Thanks bro. Now seeding.

User Opinions

SuperRip25.94K, vahgar11.6K, kiwisapphire3206, rocki061352, Pakorda490, DG3347, sanjayray312, Romar123132, NRBAROT69, lovingxue4
apudtt581
Report a bug Open chat
Sitemap