Inception (2010) BluRay 720p x264 Dual Audio [English 5.1 + Hindi 5.1] AC3 rajatmathur

seeders: 279
leechers: 109
updated:
Added by FireofSword93.47K in Movies > Highres Movies
Torrent verified. Downloaded 112,541 times.

DownloadFast Safe Anonymous
movies, software, shows...
Summary:

A thief who steals corporate secrets through use of dream-sharing technology is given the inverse task of planting an idea into the mind of a CEO.

Written by 5fingerdis65.85K
Inception (2010) BluRay 720p x264 Dual Audio [English 5.1 + Hindi 5.1] AC3 rajatmathur (Size: 1.51 GB)
  Inception (2010) BluRay 720p x264 Dual Audio [English 5.1 + Hindi 5.1] AC3 rajatmathur.mkv 1.5 GB
  sample.mkv 13.32 MB

Description

Inception (2010) BluRay 720p x264 Dual Audio [English 5.1 + Hindi 5.1] AC3 rajatmathur

image

Video
ID : 1
Format : AVC
Format/Info : Advanced Video Codec
Format profile : [email protected]
Format settings, CABAC : Yes
Format settings, ReFrames : 8 frames
Codec ID : V_MPEG4/ISO/AVC
Duration : 2h 28mn
Bit rate : 999 Kbps
Width : 1 280 pixels
Height : 536 pixels
Display aspect ratio : 2.40:1
Frame rate mode : Constant
Frame rate : 23.976 fps
Color space : YUV
Chroma subsampling : 4:2:0
Bit depth : 8 bits
Scan type : Progressive
Bits/(Pixel*Frame) : 0.061
Stream size : 1.00 GiB (67%)
Title : [email protected]

Audio #1
ID : 2
Format : AC-3
Format/Info : Audio Coding 3
Mode extension : CM (complete main)
Format settings, Endianness : Big
Codec ID : A_AC3
Duration : 2h 28mn
Bit rate mode : Constant
Bit rate : 224 Kbps
Channel(s) : 6 channels
Channel positions : Front: L C R, Side: L R, LFE
Sampling rate : 48.0 KHz
Bit depth : 16 bits
Compression mode : Lossy
Stream size : 237 MiB (15%)
Title : [email protected]
Language : English
Default : No
Forced : No

Audio #2
ID : 3
Format : AC-3
Format/Info : Audio Coding 3
Mode extension : CM (complete main)
Format settings, Endianness : Big
Codec ID : A_AC3
Duration : 2h 28mn
Bit rate mode : Constant
Bit rate : 224 Kbps
Channel(s) : 6 channels
Channel positions : Front: L C R, Side: L R, LFE
Sampling rate : 48.0 KHz
Bit depth : 16 bits
Compression mode : Lossy
Stream size : 237 MiB (15%)
Title : [email protected]
Language : Hindi
Default : Yes
Forced : No


Screens:

Related Torrents

torrent name size files age seed leech

Sharing Widget


Download torrent
1.51 GB
seeders:231
leechers:80
Inception (2010) BluRay 720p x264 Dual Audio [English 5.1 + Hindi 5.1] AC3 rajatmathur



To share this torrent use the code below and insert it into comments, status messages, forum posts or your signature.

Torrent: Inception (2010) BluRay 720p...+ Hindi 5.1] AC3 rajatmathur

Trackers

tracker name
udp://tracker.openbittorrent.com:80/announce
udp://tracker.publicbt.com:80/announce
udp://tracker.coppersurfer.tk:6969/announce
http://tracker.aletorrenty.pl:2710/announce
udp://glotorrents.pw:6969/announce
http://thetracker.org/announce
http://tracker1.itzmx.com:8080/announce
udp://tracker.opentrackr.org:1337/announce
ĀµTorrent compatible trackers list

Locations

name
KickassTorrents
ExtraTorrent
Torrent hash: 9B8B74C65610A9F97CF95F457280DD98D741FE80

All Comments

audio
8/10
video
9/10
please, leave only comments related to that torrent
Sign In

User Opinions

SFingers2339, Daaniyaal1399, VIVE1209, vishu12211018, FrostPeace816, khmudasir707, SammyB1107470, Jankio381, manrock11173, ramkhans14 ... And 327 more
rbg27614, piushkpwb98, Yaashovardhan90, rimiiii78, MiaKay49, team-kan41, sumitmahor31, ritu45925
Report a bug Open chat
Sitemap